اصفهانی ها
جستجو
 
 

نتائج البحث
 


Rechercher بحث متقدم

المواضيع الأخيرة
» فهرست مکان های دیدنی (تاریخی و طبیعی) استان اصفهان
الإثنين أبريل 06, 2015 12:54 am من طرف مهمان

» دانلود سریال حریم سلطان
الخميس أكتوبر 02, 2014 6:09 am من طرف esfahaniha

» کچلا باید برقصند کچلا باید برقصند
الإثنين سبتمبر 15, 2014 8:13 am من طرف مهمان

» آدرس و شماره تلفن مراكـز علمي كــاربردي استان اصفهان
السبت سبتمبر 13, 2014 9:47 am من طرف esfahaniha

» اگر عکس ها در جستجوی گوگل باز نشه
الجمعة سبتمبر 05, 2014 12:54 pm من طرف esfahaniha

» سایت های زیر نویس فیلم و سریال و مستند
الإثنين سبتمبر 01, 2014 5:00 pm من طرف مهمان

» روشهایی برای غلبه بر نگرانی و اضطراب
الثلاثاء أغسطس 19, 2014 5:23 pm من طرف esfahaniha

» روشهایی برای غلبه بر نگرانی و اضطراب
الثلاثاء أغسطس 19, 2014 5:23 pm من طرف esfahaniha

» نقل و قول های گران بها
الثلاثاء أغسطس 19, 2014 5:21 pm من طرف esfahaniha

ورود

كلمه رمز خود را فراموش كرده ايد؟


دانلود فيلم Jurassic Attack 2013

مشاهده موضوع قبلي مشاهده موضوع بعدي اذهب الى الأسفل

دانلود فيلم Jurassic Attack 2013

پست من طرف K o o R في الأحد فبراير 10, 2013 10:35 pm




[center]
[center]
[center]
[center]
[center]
[center]
[center]
[center]
[center]
[center]
[center]دانلود فیلم بسیار زیبای Jurassic Attack محصول سال ۲۰۱۳ آمریکا
|| کیفیت BluRay 720p و حجم ۶۰۰ مگابایت ||

[/center][/center][/center][/center][/center][/center][/center][/center][/center][/center][/center]

لینک IMDB
امتیاز فیلم : -
تاریخ انتشار : ۲۲ فوریه ۲۰۱۳
ژانر : علمی تخیلی
کارگردان : Anthony Fankhauser
بازیگران : Corin Nemec, Vernon Wells, Gary Stretch
کیفیت فیلم : خارق العاده BluRay 720p
فرمت : MKV
زبان فیلم : انگلیسی
حجم فایل : ۶۰۰ مگابایت
مدت زمان : ۱ ساعت و ۲۵ دقیقه

خلاصه فیلم :
به هنگام بازگشت از یک مامورایت نظامی، هلیکوپتر مجبور به فرود اضطراری در
یک جنگل انبوه و دورافتاده استوایی می شود، چهانی گمشده پر از دایناسورها.
حال کوماندوها باید قبل از اینکه طعمه این موجودات ماقبل تاریخ شوند راهی
برای برای خارج شدن از این جنگل پیدا کنند…


دانلود فیلم با لینک مستقیم (سرور Rodfile) :
Jurassic.Attack.2013.BluRay.720p.mkv – 598.3 MB
دانلود فیلم با لینک مستقیم (سرور Uploadbaz) :
Jurassic.Attack.2013.BluRay.720p.mkv – 598.3 MB
دانلود فیلم با لینک مستقیم (سرور Hipfile) :
Jurassic.Attack.2013.BluRay.720p.mkv – 598.3 MB
دانلود فیلم با لینک مستقیم (سرور Uptobox) :
Jurassic.Attack.2013.BluRay.720p.mkv – 598.3 MB



================================





نقل قول:




Genre:Sci-Fi
Language:English
IMDb:http://www.imdb.com/title/tt2303110/
Source:1080p.BluRay.x264-EPHEMERiD Thanks
Encoder:Tony

Format : AVI
Format/Info : Audio Video Interleave
File size : 1.38 GiB
Duration : 1h 23mn
Overall bit rate : 2 367 Kbps

Video
ID : 0
Format : MPEG-4 Visual
Format profile : Advanced Simple@L5
Format settings, BVOP : 1
Format settings, QPel : No
Format settings, GMC : No warppoints
Format settings, Matrix : Default (H.263)
Codec ID : XVID
Codec ID/Hint : XviD
Duration : 1h 23mn
Bit rate : 1 974 Kbps
Width : 640 pixels
Height : 360 pixels
Display aspect ratio : 16:9
Frame rate : 23.976 fps
Color space : YUV
Chroma subsampling : 4:2:0
Bit depth : 8 bits
Scan type : Progressive
Compression mode : Lossy
Bits/(Pixel*Frame) : 0.357
Stream size : 1.15 GiB (83%)
Writing library : XviD 1.2.1 (UTC 2008-12-04)

Audio
ID : 1
Format : AC-3
Format/Info : Audio Coding 3
Mode extension : CM (complete main)
Codec ID : 2000
Duration : 1h 23mn
Bit rate mode : Constant
Bit rate : 384 Kbps
Channel(s) : 6 channels
Channel positions : Front: L C R, Side: L R, LFE
Sampling rate : 48.0 KHz
Bit depth : 16 bits
Compression mode : Lossy
Stream size : 229 MiB (16%)
Alignment : Aligned on interleaves
Interleave, duration : 42 ms (1.00 video frame)
Interleave, preload duration : 512 ms














کد:

SINGLE LINK
rapidgator.net/file/76784187/Jurassic.Attack.2013.BRRip.XviD.Ac3.Feel-Free.avi.html

uploaded.net 42djpu3h/Jurassic.Attack.2013.BRRip.XviD.Ac3.Feel-Free.avi

1GB LINK
rapidgator.net/file/76784118/JA12.part2.rar.html
rapidgator.net/file/76784183/JA12.part1.rar.html


uploaded.net kuwem5lt/JA12.part2.rar
uploaded.net qynhyl7i/JA12.part1.rar


BillionUploads.com fhh88l1kkhmv
BillionUploads.com eogr5j6793lt


putlocker.com 96178427359CB1CC
putlocker.com DFAC48A25C8D08D6

K o o R
مهمان


بازگشت به بالاي صفحه اذهب الى الأسفل

مشاهده موضوع قبلي مشاهده موضوع بعدي بازگشت به بالاي صفحه


 
صلاحيات هذا المنتدى:
شما نمي توانيد در اين بخش به موضوعها پاسخ دهيد